Formula 1 2014 Round10 German Grand Prix Qualifying SkySports F1 SD x264

Formula 1 2014 Round10 Great German Grand Prix Qualifying SkySports F1 SD x264

• • • |Info :

General
Format : MPEG-4
Format profile : Base Media
Codec ID : isom
File size : 1.32 GiB
Duration : 2h 26mn
Overall bit rate mode : Variable
Overall bit rate : 1 290 Kbps
Encoded date : UTC 2014-07-19 14:51:15
Tagged date : UTC 2014-07-19 14:51:15

Video
ID : 1
Format : AVC
Format/Info : Advanced Video Codec
Format settings, CABAC : Yes
Format settings, ReFrames : 5 frames
Codec ID : avc1
Codec ID/Info : Advanced Video Coding
Duration : 2h 26mn
Bit rate : 1 150 Kbps
Maximum bit rate : 3 760 Kbps
Width : 704 pixels
Height : 394 pixels
Display aspect ratio : 16:9
Frame rate mode : Variable
Frame rate : 25.000 fps
Minimum frame rate : 24.606 fps
Maximum frame rate : 25.202 fps
Color space : YUV
Chroma subsampling : 4:2:0
Bit depth : 8 bits
Scan type : Progressive
Bits/(Pixel*Frame) : 0.166
Stream size : 1.18 GiB (89%)
Writing library : x264 core 142 r2431 ac76440
Encoded date : UTC 2014-07-19 14:48:56
Tagged date : UTC 2014-07-19 14:51:53

Audio
ID : 2
Format : AAC
Format/Info : Advanced Audio Codec
Format profile : LC
Codec ID : 40
Duration : 2h 26mn
Bit rate mode : Variable
Bit rate : 135 Kbps
Maximum bit rate : 173 Kbps
Channel count : 2 channels
Channel positions : Front: L R
Sampling rate : 48.0 KHz
Compression mode : Lossy
Stream size : 142 MiB (11%)
Encoded date : UTC 2014-07-19 14:51:31
Tagged date : UTC 2014-07-19 14:51:53

• • • |Screenshots :

• • • | Links :

Grab Your Links .. f12014r10germ1.zip – Grabbed 6 times – 480 B

.

Leave a Reply

This site uses Akismet to reduce spam. Learn how your comment data is processed.