Formula 1 2014 Round04 Chinese Grand Prix Practice Two SkySports F1 HD 720p x264

Formula 1 2014 Round04 Chinese Grand Prix Practice Two SkySports F1 HD 720p x264

• • • |Info :

General
Format : Matroska
Format version : Version 4 / Version 2
File size : 2.48 GiB
Duration : 1h 53mn
Overall bit rate : 3 111 Kbps
Encoded date : UTC 2014-04-18 12:23:45
Writing library : libebml v1.3.0 + libmatroska v1.4.1

Video
ID : 1
Format : AVC
Format/Info : Advanced Video Codec
Format profile : High@L4.1
Format settings, CABAC : Yes
Format settings, ReFrames : 5 frames
Codec ID : V_MPEG4/ISO/AVC
Duration : 1h 53mn
Bit rate : 2 665 Kbps
Width : 1 280 pixels
Height : 720 pixels
Display aspect ratio : 16:9
Frame rate mode : Constant
Frame rate : 25.000 fps
Color space : YUV
Chroma subsampling : 4:2:0
Bit depth : 8 bits
Scan type : Progressive
Bits/(Pixel*Frame) : 0.116
Stream size : 2.12 GiB (86%)
Writing library : x264 core 142 r2409 d6b4e63
Default : Yes
Forced : No
Matrix coefficients : BT.709

Audio
ID : 2
Format : AC-3
Format/Info : Audio Coding 3
Mode extension : CM (complete main)
Format settings, Endianness : Big
Codec ID : A_AC3
Duration : 1h 53mn
Bit rate mode : Constant
Bit rate : 384 Kbps
Channel count : 6 channels
Channel positions : Front: L C R, Side: L R, LFE
Sampling rate : 48.0 KHz
Bit depth : 16 bits
Compression mode : Lossy
Stream size : 313 MiB (12%)
Default : Yes
Forced : No

• • • |Screenshots :

• • • | Links :

Grab Your Links .. f12014r04chin6.zip – Grabbed 8 times – 497 B

.

Leave a Reply

This site uses Akismet to reduce spam. Learn how your comment data is processed.